Jump to content

error: Length cannot be less than zero


Recommended Posts

REM GENRE Rock
REM DATE 2010
REM DISCID C10C620D
REM COMMENT "ExactAudioCopy v1.0b3"
PERFORMER "Вячеслав Бутусов & Ю-Питер"
TITLE "Цветы и Тернии"
FILE "Вячеслав Бутусов & Ю-Питер - Цветы и Тернии.flac" WAVE
  TRACK 01 AUDIO
    TITLE "Глаза"
    PERFORMER "Вячеслав Бутусов & Ю-Питер"
    FLAGS DCP
    INDEX 01 00:00:00
  TRACK 02 AUDIO
    TITLE "Скалолазы"
    PERFORMER "Вячеслав Бутусов & Ю-Питер
    FLAGS DCP
    INDEX 00 04:40:71
    INDEX 01 04:42:71
  TRACK 03 AUDIO
    TITLE "Это"
    PERFORMER "Вячеслав Бутусов & Ю-Питер"
    FLAGS DCP
    INDEX 00 08:46:70
    INDEX 01 08:48:70
  TRACK 04 AUDIO
    TITLE "Прятки"
    PERFORMER "Вячеслав Бутусов & Ю-Питер"
    FLAGS DCP
    INDEX 00 12:28:55
    INDEX 01 12:30:55
  TRACK 05 AUDIO
    TITLE "Небо земли"
    PERFORMER "Вячеслав Бутусов & Ю-Питер"
    FLAGS DCP
    INDEX 00 16:23:47
    INDEX 01 16:25:47
  TRACK 06 AUDIO
    TITLE "Что же я такого"
    PERFORMER "Вячеслав Бутусов & Ю-Питер"
    FLAGS DCP
    INDEX 00 19:46:02
    INDEX 01 19:48:02
  TRACK 07 AUDIO
    TITLE "Чистый плюс"
    PERFORMER "Вячеслав Бутусов & Ю-Питер"
    FLAGS DCP
    INDEX 00 25:31:54
    INDEX 01 25:33:54
  TRACK 08 AUDIO
    TITLE "Враг"
    PERFORMER "Вячеслав Бутусов & Ю-Питер"
    FLAGS DCP
    INDEX 00 28:54:37
    INDEX 01 28:56:37
  TRACK 09 AUDIO
    TITLE "Цветок"
    PERFORMER "Вячеслав Бутусов & Ю-Питер"
    FLAGS DCP
    INDEX 00 31:53:52
    INDEX 01 31:55:52
  TRACK 10 AUDIO
    TITLE "Терновник"
    PERFORMER "Вячеслав Бутусов & Ю-Питер"
    FLAGS DCP
    INDEX 00 36:20:02
    INDEX 01 36:22:02
  TRACK 11 AUDIO
    TITLE "Невесомость"
    PERFORMER "Вячеслав Бутусов & Ю-Питер"
    FLAGS DCP
    INDEX 00 40:05:06
    INDEX 01 40:07:06
  TRACK 12 AUDIO
    TITLE "Дети минут (акустика)"
    PERFORMER "Вячеслав Бутусов & Ю-Питер"
    FLAGS DCP
    INDEX 00 43:24:43
    INDEX 01 43:26:43
  TRACK 13 AUDIO
    TITLE "Дети минут (электро)"
    PERFORMER "Вячеслав Бутусов & Ю-Питер"
    FLAGS DCP
    INDEX 00 47:52:73
    INDEX 01 47:54:73
 

Link to post
Share on other sites

Join the conversation

You can post now and register later. If you have an account, sign in now to post with your account.

Guest
Reply to this topic...

×   Pasted as rich text.   Paste as plain text instead

  Only 75 emoji are allowed.

×   Your link has been automatically embedded.   Display as a link instead

×   Your previous content has been restored.   Clear editor

×   You cannot paste images directly. Upload or insert images from URL.

×
×
  • Create New...

Important Information

We have placed cookies on your device to help make this website better. You can adjust your cookie settings, otherwise we'll assume you're okay to continue.