Jump to content

[R] error with cue file


Guest haydn

Recommended Posts

Guest haydn

Error with use of a cue file : the listing of time index rips ; there is an example :

--------------------------------------------------------------------------

PERFORMER "Karl Böhm"

TITLE "Siegfried"

FILE "Wagner Operas 22.wav" WAVE

TRACK 01 AUDIO

TITLE "Vorspiel"

PERFORMER "Richard Wagner"

INDEX 00 00:00:00

INDEX 01 00:00:33

TRACK 02 AUDIO

TITLE "Zwangvolle Plage! Müh ohne Zweck!"

PERFORMER "Richard Wagner"

INDEX 01 04:00:08

TRACK 03 AUDIO

TITLE "Nun tobst du wieder wie toll"

PERFORMER "Richard Wagner"

INDEX 01 10:11:15

TRACK 04 AUDIO

TITLE "Vieles lehrtest du, Mime"

PERFORMER "Richard Wagner"

INDEX 01 13:05:40

TRACK 05 AUDIO

TITLE "Wo hast du nun, Mime, dein minniges Weibchen"

PERFORMER "Richard Wagner"

INDEX 01 18:23:43

TRACK 06 AUDIO

TITLE "So starb meine Mutter an mir?"

PERFORMER "Richard Wagner"

INDEX 01 23:25:30

TRACK 07 AUDIO

TITLE "Das gab mir deine Mutter"

PERFORMER "Richard Wagner"

INDEX 01 26:10:00

TRACK 08 AUDIO

TITLE "Heil dir, weiser Schmied!"

PERFORMER "Richard Wagner"

INDEX 01 29:51:68

TRACK 09 AUDIO

TITLE "Hier sitz' ich am Herd"

PERFORMER "Richard Wagner"

INDEX 01 33:29:50

TRACK 10 AUDIO

TITLE "Viel, Wanderer, weißt du mir"

PERFORMER "Richard Wagner"

INDEX 01 39:30:70

TRACK 11 AUDIO

TITLE "Was zu wissen dir frommt, solltest du fragen"

PERFORMER "Richard Wagner"

INDEX 01 43:28:58

TRACK 12 AUDIO

TITLE "Notung heisst ein neidliches Schwert"

PERFORMER "Richard Wagner"

INDEX 01 48:59:70

------------------------------------------------------------------------

I have quoted in bold text what seems to me in report with the bug ? And there is an image of the corresponding output for CDBurner (version 4.3.7.2423) :

http://herve.delboy.perso.sfr.fr/wagner.jpg

Thank you and best regards.

Link to post
Share on other sites

theres none here .. the index on the cue file is showing the time each track has taken on the cd. from 0 to the end of each track. If you take how long each has in length do a running total its the same. I see no ug?

Link to post
Share on other sites

Join the conversation

You can post now and register later. If you have an account, sign in now to post with your account.

Guest
Reply to this topic...

×   Pasted as rich text.   Paste as plain text instead

  Only 75 emoji are allowed.

×   Your link has been automatically embedded.   Display as a link instead

×   Your previous content has been restored.   Clear editor

×   You cannot paste images directly. Upload or insert images from URL.

×
×
  • Create New...

Important Information

We have placed cookies on your device to help make this website better. You can adjust your cookie settings, otherwise we'll assume you're okay to continue.