CUE sheet header data for audio CD's

3 posts in this topic

Posted

I was very happy to find your software when I built my new Windows 7 64-bit computer. I bought an OEM DVD writer to save some money, so it didn't come with CD burning software like my old one did. I love the simple interface.

I have burned a couple of audio CD's with CD-Text using CUE sheets, and the track and performer data come across fine. I read in one of the other posts here, though, that you currently do not support using the CUE file's header information for the CD as a whole (title, performer, date, genre, etc.) I would like to request bringing those in as an enhancement. I tried using the Title and Artist fields in the Disc/CD-Text menu, but they weren't included in the burn. I am using version 4.4.0.2905.

Thanks, and keep up the good work!

2012-10-06 This is still on my wish list as of version 4.4.1.3099. A CD I just burned also uses "Track 1" as the title; all of the other tracks show the correct titles from my CUE sheet. I've attached the CUE sheet as an example.

Share this post


Link to post
Share on other sites

Posted

Here's an update:

I'm using version 4.4.2.3442, and the album Title and Artist are included in my burn, if I view the info with VLC Media Player, so my request is to also include the GENRE and DATE tags. I am also in contact with the authors of WPCD-Text to update their add-in to utilize the data from header tags if it is available.


GENRE "Classical"

DATE "1974"

PERFORMER "Various Artists"

TITLE "Orchestra Sampler"


FILE "../1-Record WAVE Files/01 Also Sprach Zarathustra (Strauss).wav" WAVE

TRACK 01 AUDIO

TITLE "Also Sprach Zarathustra (Strauss)"

PERFORMER "Various Artists"

PREGAP 00:00:01

INDEX 01 00:00:00


FILE "../1-Record WAVE Files/02 General Lee March (unknown).wav" WAVE

TRACK 02 AUDIO

TITLE "General Lee March (unknown)"

PERFORMER "Various Artists"

INDEX 01 00:00:00


FILE "../1-Record WAVE Files/03 Syncopated Clock (Anderson).wav" WAVE

TRACK 03 AUDIO

TITLE "Syncopated Clock (Anderson)"

PERFORMER "Various Artists"

INDEX 01 00:00:00


FILE "../1-Record WAVE Files/04 Sleeping Beauty Waltz (Tchaikovsky).wav" WAVE

TRACK 04 AUDIO

TITLE "Sleeping Beauty Waltz (Tchaikovsky)"

PERFORMER "Various Artists"

INDEX 01 00:00:00


FILE "../1-Record WAVE Files/05 Sorcerer's Apprentice (Dukas).wav" WAVE

TRACK 05 AUDIO

TITLE "Sorcerer's Apprentice (Dukas)"

PERFORMER "Various Artists"

INDEX 01 00:00:00


FILE "../1-Record WAVE Files/06 Sicilienne (Faure).wav" WAVE

TRACK 06 AUDIO

TITLE "Sicilienne (Faure)"

PERFORMER "Various Artists"

INDEX 01 00:00:00


FILE "../1-Record WAVE Files/07 Ziguenerweisen (Sarasate).wav" WAVE

TRACK 07 AUDIO

TITLE "Ziguenerweisen (Sarasate)"

PERFORMER "Various Artists"

INDEX 01 00:00:00


FILE "../1-Record WAVE Files/08 Tzigane (Ravel).wav" WAVE

TRACK 08 AUDIO

TITLE "Tzigane (Ravel)"

PERFORMER "Various Artists"

INDEX 01 00:00:00



post-55627-0-97177500-1351445248_thumb.p

post-55627-0-24741400-1351445257_thumb.p

post-55627-0-87070800-1351445263_thumb.p

Share this post


Link to post
Share on other sites

Posted

This is technically not currently possible, won't be implemented soon I believe.

Share this post


Link to post
Share on other sites

Create an account or sign in to comment

You need to be a member in order to leave a comment

Create an account

Sign up for a new account in our community. It's easy!


Register a new account

Sign in

Already have an account? Sign in here.


Sign In Now